Enable / Włącz Javascript
 Widok 
 Kategorie 
 Nitro Torrent w sieci 
 Top 10 użytkowników 
 Załoga-Ekipazh 3D (2016)[BDRip 1080p x264 by alE13 AC3] [Napisy PLENG] [Rus]

Załoga-Ekipazh 3D (2016)[BDRip 1080p x264 by alE13 AC3] [Napisy PLENG] [Rus]
Kategoria: » » »
Dodane: 03/10/2017
Rozmiar: 7.91 GB
Uploader: justmoverecords.com❱ Wędrowiec
seed(ów): 0
leecher(ów): 0
Pobrane: 1
Komentarzy: 0
Pobierz Torrent Pobierz Torrent
Pobierz [Magnet] Pobierz [Magnet]

Obserwuj
Raportuj


http://www.filmweb.pl/film/Ekipazh-2016-736231
http://www.imdb.com/title/tt5653294/

Film w wersji 3D Half Over/Under.

reżyseria: Nikolay Lebedev
scenariusz: Tikhon Kornev,Nikolai Kulikov,Nikolay Lebedev,Yuriy Korotkov,Aleksei Onishchenko
gatunek: Przygodowy,Thriller
produkcja: Rosja
premiera: 14-04-2016
zdjęcia:        Ireneusz Hartowicz
czas:           2h 17mn

opis:

A story about bravery, self-sacrifice and human dignity put on trial by the merciless power
of nature. A young pilot is fired from military air force after disobeying an absurd order.
He gets a job as a co-pilot with a civil airline. Being brutally honest and direct, he is not
on best terms with his new colleagues. During a flight to Asia his crew receives a distress message
from a volcanic island and makes a decision to attempt a rescue mission. Will it be a success?
Will they survive the disaster? They have a single chance to find that out: by being a team and
sticking up for one another.

Remake filmu z 1979 opowiada o odwadze, poświęceniu i godności ludzkiej w obliczu bezlitosnej siły natury.
Młody pilot zostaje zwolniony z wojskowych sił powietrznych za niesubordynację. Dostaje pracę jako pilot
w liniach pasażerskich. Będąc brutalnie szczery i bezpośredni, nie jest najlepszym przyjacielem swoich
nowych kolegów. Podczas lotu do Azji jego załoga odbiera sygnał o niebezpieczeństwie z wulkanicznej wyspy
i podejmuje decyzję o próbie misji ratunkowej. Czy misja zakończy się sukcesem? Mają jedną szansę, aby się
o tym przekonać; będąc prawdziwym zespołem.

To pierwszy film rosyjski częściowo nakręcony kamerą IMAX.






obsada:

Vladimir Mashkov, Agne Grudyte, Sergey Shakurov

dane techniczne:

Ekipazh 3D (2016)-alE13.mkv
Format                      : Matroska
Format version              : Version 4 / Version 2
File size                   : 7.83 GiB
Duration                    : 2h 17mn
Overall bit rate mode       : Variable
Overall bit rate            : 8 167 Kbps
Movie name                  : Ekipazh 3D (2016)-alE13
Encoded date                : UTC 2016-10-26 15:31:38
Writing application         : mkvmerge v8.1.0 ('Psychedelic Postcard') 64bit
Writing library             : libebml v1.3.1 + libmatroska v1.4.2
Attachements                : cover.jpg
DURATION                    : 02:11:38.421000000
NUMBER_OF_FRAMES            : 847
NUMBER_OF_BYTES             : 7238995
_STATISTICS_WRITING_APP     : mkvmerge v8.1.0 ('Psychedelic Postcard') 64bit
_STATISTICS_WRITING_DATE_UT : 2016-10-26 15:31:38
_STATISTICS_TAGS            : BPS DURATION NUMBER_OF_FRAMES NUMBER_OF_BYTES

Video
ID                          : 1
Format                      : AVC
Format/Info                 : Advanced Video Codec
Format profile              : High@L4
Format settings, CABAC      : Yes
Format settings, ReFrames   : 3 frames
Codec ID                    : V_MPEG4/ISO/AVC
Duration                    : 2h 17mn
Bit rate mode               : Variable
Bit rate                    : 7 364 Kbps
Maximum bit rate            : 20.0 Mbps
Width                       : 1 920 pixels
Height                      : 1 080 pixels
Display aspect ratio        : 16:9
Frame rate mode             : Constant
Frame rate                  : 23.976 fps
Standard                    : PAL
Color space                 : YUV
Chroma subsampling          : 4:2:0
Bit depth                   : 8 bits
Scan type                   : Progressive
Bits/(Pixel*Frame)          : 0.148
Stream size                 : 7.06 GiB (90%)
Title                       : Ekipazh 3D (2016)-alE13
Default                     : Yes
Forced                      : No
Color range                 : Limited
Color primaries             : BT.709
Transfer characteristics    : BT.709
Matrix coefficients         : BT.709

Audio
ID                          : 2
Format                      : AC-3
Format/Info                 : Audio Coding 3
Mode extension              : CM (complete main)
Format settings, Endianness : Big
Codec ID                    : A_AC3
Duration                    : 2h 17mn
Bit rate mode               : Constant
Bit rate                    : 640 Kbps
Channel(s)                  : 6 channels
Channel positions           : Front: L C R, Side: L R, LFE
Sampling rate               : 48.0 KHz
Compression mode            : Lossy
Stream size                 : 628 MiB (8%)
Title                       : Ekipazh 3D (2016)-alE13
Language                    : Russian
Default                     : Yes
Forced                      : No

Text #1
ID                          : 3
Format                      : VobSub
Muxing mode                 : zlib
Codec ID                    : S_VOBSUB
Codec ID/Info               : Picture based subtitle format used on DVDs
Title                       : Ekipazh 3D (2016)-alE13
Language                    : Polish
Default                     : Yes
Forced                      : No

Text #2
ID                          : 4
Format                      : UTF-8
Codec ID                    : S_TEXT/UTF8
Codec ID/Info               : UTF-8 Plain Text
Title                       : Ekipazh 3D (2016)-alE13_color
Language                    : Polish
Default                     : No
Forced                      : No

Text #3
ID                          : 5
Format                      : VobSub
Muxing mode                 : zlib
Codec ID                    : S_VOBSUB
Codec ID/Info               : Picture based subtitle format used on DVDs
Title                       : Ekipazh 3D (2016)-alE13
Language                    : English
Default                     : No
Forced                      : No

Menu
00:00:00.000                : :1
00:10:07.315                : :2
00:22:12.706                : :3
00:32:04.464                : :4
00:44:39.427                : :5
00:54:12.749                : :6
01:05:24.003                : :7
01:17:50.374                : :8
01:29:18.436                : :9
01:37:11.659                : :10
01:49:33.734                : :11
02:05:27.603                : :12

== alE13 ==


Dostępne napisy
Brak napisów
Szczegóły torrenta
Tracker http://tracker.torrentyorg.pl/announce
Multitracker [ Pokaż ]
Kategoria: » » » [Zgłoś błąd]
Dodane 03-10-2017
Podziękowali:
0 użytkowników 
Podziękuj!
Pokaż / Ukryj pliki:
Nazwa pliku Rozmiar
info/Nostalgie.jpg 138.36 KB
info/Torrent downloaded from alE13 torrents at BTScene.org.txt 0.12 KB
info/torrent downoloadet from auratorrent.txt 0.09 KB
info/torrent downoloadet from torrentyorg.txt 0.09 KB
info/Torrent downloaded from demonoid.pw.txt 0.04 KB
subtitles/Ekipazh 3D (2016)-alE13.rar 9.95 MB
Ekipazh 3D (2016)-alE13.mkv 7.83 GB
sample.mkv 72.31 MB
cover.jpg 1.30 MB
Poster 2.jpg 147.25 KB
txt.jpg 33.56 KB
11 plików
Brak komentarzy...