Enable / Włącz Javascript
 Widok 
 Kategorie 
 Nitro Torrent w sieci 
 Top 10 użytkowników 
 Herkules 3D(OU) - Hercules *2014* [mini-HD.1080p.Half.Over-Under.AC3.PLSUBBED.BluRay.x264-SONDA]

Herkules 3D(OU) - Hercules *2014* [mini-HD.1080p.Half.Over-Under.AC3.PLSUBBED.BluRay.x264-SONDA]
Kategoria: » » »
Dodane: 03/10/2017
Rozmiar: 3.99 GB
Uploader: justmoverecords.com❱ Wędrowiec
seed(ów): 0
leecher(ów): 0
Pobrane: 16
Komentarzy: 0
Pobierz Torrent Pobierz Torrent
Pobierz [Magnet] Pobierz [Magnet]

Obserwuj
Raportuj
Film w wersji 3D Over-Under
Do odtworzenia filmu WYMAGANY odpowiedni sprzęt (TV 3D).
==========================================
UWAGA: Napisy na stałe wtopione w film. Zapraszam Wszystkich chętnych !!!!!!
=====================================================


Kopia mini-HD 1080p = 3,98 GB


gatunek: Przygodowy
produkcja: USA
premiera: 25 lipca 2014 (Polska) 23 lipca 2014 (świat)
reżyseria: Brett Ratner
scenariusz: Ryan CondalEvan Spiliotopoulos

http://www.imdb.com/title/tt1267297/
http://www.filmweb.pl/film?id=563042


Obsada:

Dwayne Johnson ... Herkules
Ian McShane ... Amfiaraos
John Hurt ... Kotys
Rufus Sewell ... Autolykos
Aksel Hennie ... Tydeus
Ingrid Bolso Berdal ... Atalanta
Reece Ritchie ... Jolaos
Joseph Fiennes ... Król Eurysteusz

Opis:

Ziemia, czternaście tysięcy lat temu. Udręczona dusza półboga błąka się po świecie. Herkules (Johnson), syn potężnego Zeusa, przez całe życie nie zaznał niczego prócz cierpienia. Po wykonaniu dwunastu ciężkich prac i utracie rodziny, poświęca się krwawym bitwom. Tylko one przynoszą mu ukojenie. Za towarzyszy ma szóstkę podobnych mu straceńców, których łączy zamiłowanie do wojny i nieustająca bliskość śmierci. Ich los odmienia się, gdy król Tracji (Hurt) zechce, by uczynili jego armię najpotężniejszą na świecie. Zagubione dusze dostrzegą, jak nisko upadły, gdy stworzą wojowników równie bezwzględnych i żądnych krwi, jak one same.

Screeny:

[Oryginalny obrazek]
[Oryginalny obrazek]
[Oryginalny obrazek]

[Oryginalny obrazek]
[Oryginalny obrazek]
[Oryginalny obrazek]

[Oryginalny obrazek]




General
Format                                   : Matroska
Format version                           : Version 2
File size                                : 3.98 GiB
Duration                                 : 1h 38mn
Overall bit rate                         : 5 817 Kbps
Movie name                               : Hercules_3D.miniHD.1080p.subbedPL.Bluray3D [Rip by Sonda AT-Team]
Encoded date                             : UTC 2014-11-01 10:02:03
Writing application                      : mkvmerge v5.7.0 ('The Whirlwind') built on Jul  8 2012 20:08:51
Writing library                          : libebml v1.2.3 + libmatroska v1.3.0

Video
ID                                       : 1
Format                                   : AVC
Format/Info                              : Advanced Video Codec
Format profile                           : High@L4.1
Format settings, CABAC                   : Yes
Format settings, ReFrames                : 2 frames
Codec ID                                 : V_MPEG4/ISO/AVC
Duration                                 : 1h 38mn
Bit rate                                 : 5 253 Kbps
Width                                    : 1 920 pixels
Height                                   : 1 080 pixels
Display aspect ratio                     : 2.39:1
Frame rate mode                          : Constant
Frame rate                               : 23.976 fps
Color space                              : YUV
Chroma subsampling                       : 4:2:0
Bit depth                                : 8 bits
Scan type                                : Progressive
Bits/(Pixel*Frame)                       : 0.106
Stream size                              : 3.60 GiB (90%)
Title                                    : Rip by Sonda subbedPL
Writing library                          : x264 core
Default                                  : Yes
Forced                                   : No
Color primaries                          : BT.709
Transfer characteristics                 : BT.709
Matrix coefficients                      : BT.709

Audio
ID                                       : 2
Format                                   : AC-3
Format/Info                              : Audio Coding 3
Mode extension                           : CM (complete main)
Format settings, Endianness              : Big
Codec ID                                 : A_AC3
Duration                                 : 1h 38mn
Bit rate mode                            : Constant
Bit rate                                 : 448 Kbps
Channel(s)                               : 6 channels
Channel positions                        : Front: L C R, Side: L R, LFE
Sampling rate                            : 48.0 KHz
Bit depth                                : 16 bits
Compression mode                         : Lossy
Stream size                              : 314 MiB (8%)
Title                                    : AC3 5.1 Original
Language                                 : English
Default                                  : Yes
Forced                                   : No

Menu
00:00:00.000                             : en:(01)00:00:00:000
00:05:00.000                             : en:(02)00:05:00:000
00:10:00.000                             : en:(03)00:10:00:000
00:15:00.000                             : en:(04)00:15:00:000
00:20:00.000                             : en:(05)00:20:00:000
00:25:00.000                             : en:(06)00:25:00:000
00:30:00.000                             : en:(07)00:30:00:000
00:35:00.000                             : en:(08)00:35:00:000
00:40:00.000                             : en:(09)00:40:00:000
00:45:00.000                             : en:(10)00:45:00:000
00:50:00.000                             : en:(11)00:50:00:000
00:55:00.000                             : en:(12)00:55:00:000
01:00:00.000                             : en:(13)01:00:00:000
01:05:00.000                             : en:(14)01:05:00:000
01:10:00.000                             : en:(15)01:10:00:000
01:15:00.000                             : en:(16)01:15:00:000
01:20:00.000                             : en:(17)01:20:00:000
01:25:00.000                             : en:(18)01:25:00:000
01:30:00.000                             : en:(19)01:30:00:000
01:35:00.000                             : en:(20)01:35:00:000


Source:
V/A-Hercules.2014.1080p.3D.BluRay.AVC.DTS-HD.MA.7.1-RARBG
SUBBEDPL - SONDA




Dostępne napisy
Brak napisów
Szczegóły torrenta
Tracker http://tracker.aletorrenty.pl:2710/announce
Multitracker [ Pokaż ]
Kategoria: » » » [Zgłoś błąd]
Dodane 03-10-2017
Podziękowali:
0 użytkowników 
Podziękuj!
Pokaż / Ukryj pliki:
Nazwa pliku Rozmiar
Hercules_3D.miniHD.1080p.subbedPL(Sonda).mkv 3.98 GB
AT-TEAM old movie.jpg 140.78 KB
hercules-blu-ray-cover.jpg 108.26 KB
Upload by Sonda [AT-TEAM].jpg 36.66 KB
Read iNFO.txt 2.07 KB
Ale Torrenty Team enjoy !.url 0.11 KB
6 plików
Brak komentarzy...