Enable / Włącz Javascript
 Widok 
 Kategorie 
 Nitro Torrent w sieci 
 Top 10 użytkowników 
 Gęsia skórka 3D - Goosebumps *2015* [PLSUBBED.1080p.3D.Half.Over-Under.DTS 5.1.AC3.BluRay.x264-SONDA] [ENG] [AT-TEAM]

Gęsia skórka 3D - Goosebumps *2015* [PLSUBBED.1080p.3D.Half.Over-Under.DTS 5.1.AC3.BluRay.x264-SONDA] [ENG] [AT-TEAM]
Kategoria: » » »
Dodane: 03/10/2017
Rozmiar: 10.57 GB
Uploader: justmoverecords.com❱ Wędrowiec
seed(ów): 0
leecher(ów): 0
Pobrane: 5
Komentarzy: 0
Pobierz Torrent Pobierz Torrent
Pobierz [Magnet] Pobierz [Magnet]

Obserwuj
Raportuj


Film w wersji 3D Over-Under.
Do odtworzenia filmu WYMAGANY odpowiedni sprzęt (TV 3D)
===========================================
UWAGA: Napisy na stałe wtopione w film. Zapraszam Wszystkich chętnych !!!!!!!
=====================================================

gatunek: Horror,Komedia,Przygodowy
produkcja: USA
premiera: 5 lutego 2016 (Polska) 3 października 2015 (świat)
reżyseria: Rob Letterman
scenariusz: Scott Alexander,Carl Ellsworth,Larry Karaszewski,Darren Lemke

http://www.imdb.com/title/tt1051904/

Obsada:

Jack Black ... R.L. Stine
Dylan Minnette ... Zach Cooper
Odeya Rush ... Hannah
Amy Ryan ...  Gale
Ryan Lee ... Champ
Jillian Bell ... Lorraine
Halston Sage ... Taylor
Ken Marino ... Trener Carr

Opis:

Po przeprowadzce do małego miasteczka Zach zaprzyjaźnia się z Hanną. Ich znajomość oparta jest początkowo na niewyjaśnionej tajemnicy, którą nieufna dziewczyna nie chce się podzielić. Sytuacja zmienia się diametralnie, kiedy Zach poznaje ojca Hanny ? R.L. Stine?a (Jack Black), twórcę książek dla dzieci. Niestety, chłopak przypadkowo uwalnia zamieszkujące karty powieści Stine?a duchy i potwory, które opanowują miasteczko. Czy Zachowi, Hannie i pisarzowi uda się zagonić je z powrotem do świata baśni? Film oparty na podstawie bestsellerowej serii książek pod tym samym tytułem, autorstwa R.L. Stine?a.

Storyline:

Upset about moving from a big city to a small town, teenager Zach Cooper (Dylan Minnette) finds a silver lining when he meets the beautiful girl, Hannah (Odeya Rush), living right next door. But every silver lining has a cloud, and Zach's comes when he learns that Hannah has a mysterious dad who is revealed to be R. L. Stine (Jack Black), the author of the bestselling Goosebumps series. It turns out that there is a reason why Stine is so strange... he is a prisoner of his own imagination - the monsters that his books made famous are real, and Stine protects his readers by keeping them locked up in their books. When Zach unintentionally unleashes the monsters from their manuscripts and they begin to terrorize the town, it's suddenly up to Stine, Zach, Hannah, and Zach's friend Champ (Ryan Lee) to get all of them back in the books where they belong.

Screenshot:







General
Format                                   : Matroska
Format version                           : Version 2
File size                                : 10.6 GiB
Duration                                 : 1h 43mn
Overall bit rate                         : 14.7 Mbps
Movie name                               : Goosebumps.3D.2015.PLSUBBED.H-OU.BDRip.1080p Rip by Sonda [AT-Team]
Encoded date                             : UTC 2016-01-29 10:55:13
Writing application                      : mkvmerge v5.7.0 ('The Whirlwind') built on Jul  8 2012 20:08:51
Writing library                          : libebml v1.2.3 + libmatroska v1.3.0

Video
ID                                       : 1
Format                                   : AVC
Format/Info                              : Advanced Video Codec
Format profile                           : High@L4.1
Format settings, CABAC                   : Yes
Format settings, ReFrames                : 4 frames
Codec ID                                 : V_MPEG4/ISO/AVC
Duration                                 : 1h 43mn
Bit rate                                 : 12.5 Mbps
Width                                    : 1 920 pixels
Height                                   : 1 080 pixels
Display aspect ratio                     : 16:9 (2.39:1)
Frame rate mode                          : Constant
Frame rate                               : 23.976 fps
Color space                              : YUV
Chroma subsampling                       : 4:2:0
Bit depth                                : 8 bits
Scan type                                : Progressive
Bits/(Pixel*Frame)                       : 0.251
Stream size                              : 8.81 GiB (83%)
Title                                    : PLSUBBED Rip by Sonda
Writing library                          : x264 core 148 r2638 7599210
Encoding settings                        : cabac=1 / ref=4 / deblock=1:-1:-1 / rc=2pass
Default                                  : Yes
Forced                                   : No

Audio #1
ID                                       : 2
Format                                   : AC-3
Format/Info                              : Audio Coding 3
Mode extension                           : CM (complete main)
Format settings, Endianness              : Big
Codec ID                                 : A_AC3
Duration                                 : 1h 43mn
Bit rate mode                            : Constant
Bit rate                                 : 640 Kbps
Channel count                            : 6 channels
Channel positions                        : Front: L C R, Side: L R, LFE
Sampling rate                            : 48.0 KHz
Bit depth                                : 16 bits
Compression mode                         : Lossy
Stream size                              : 473 MiB (4%)
Title                                    : AC3 5.1
Language                                 : English
Default                                  : Yes
Forced                                   : Yes

Audio #2
ID                                       : 3
Format                                   : DTS
Format/Info                              : Digital Theater Systems
Mode                                     : 16
Format settings, Endianness              : Big
Codec ID                                 : A_DTS
Duration                                 : 1h 43mn
Bit rate mode                            : Constant
Bit rate                                 : 1 509 Kbps
Channel count                            : 6 channels
Channel positions                        : Front: L C R, Side: L R, LFE
Sampling rate                            : 48.0 KHz
Bit depth                                : 16 bits
Compression mode                         : Lossy
Stream size                              : 1.09 GiB (10%)
Title                                    : DTS 5.1
Language                                 : English
Default                                  : No
Forced                                   : No

Source:
A/V-BDRemux 2D/3D



.:: Sonda ::.


Dostępne napisy
Brak napisów
Szczegóły torrenta
Tracker http://tracker.torrenty.org:6969/announce
Multitracker [ Pokaż ]
Kategoria: » » » [Zgłoś błąd]
Dodane 03-10-2017
Podziękowali:
0 użytkowników 
Podziękuj!
Pokaż / Ukryj pliki:
Nazwa pliku Rozmiar
AT-TEAM/Upload by Sonda [AT-TEAM].jpg 45.62 KB
AT-TEAM/Read iNFO.txt 2.07 KB
AT-TEAM/Ale Torrenty Team enjoy !.url 0.11 KB
info/Torrent downloaded from sonda torrents at Free-Torrents.pl.txt 0.52 KB
info/Torrent downloaded from sonda torrents at aletorrenty.pl.txt 0.38 KB
info/Torrent downloaded from Sonda torrents at BTS.to.txt 0.11 KB
info/Torrent downloaded from Sonda torrents at AhaShare.com.txt 0.06 KB
info/Torrent downloaded from sonda000 torrents at demonoid.ph.txt 0.02 KB
Goosebumps.3D.2015.PLSUBBED.H-OU.BDRip.1080p(Sonda).mkv 10.57 GB
Goosebumps 3D.jpg 293.57 KB
photothumb.db 16.00 KB
11 plików
Brak komentarzy...