Enable / Włącz Javascript
 Widok 
 Kategorie 
 Nitro Torrent w sieci 
 Top 10 użytkowników 
 Dżungla-Dzhungli 3D (2012)[BRRip 1080p x264 by alE13 AC3] [Napisy PLENG] [Rus]

Dżungla-Dzhungli 3D (2012)[BRRip 1080p x264 by alE13 AC3] [Napisy PLENG] [Rus]
Kategoria: » » »
Dodane: 03/10/2017
Rozmiar: 7.78 GB
Uploader: tomysparow559 (10)
seed(ów): 0
leecher(ów): 0
Pobrane: 8
Komentarzy: 0
Pobierz Torrent Pobierz Torrent
Pobierz [Magnet] Pobierz [Magnet]

Obserwuj
Raportuj
Film w wersji 3D Half Over/Under.

reżyseria: Aleksandr Voytinskiy
scenariusz: Alexey Fedorov,Oleg Malovichko
gatunek: Komedia ,Przygodowy
produkcja: Rosja
premiera: 29-11-2012
zdjęcia:        Igor Grinyakin
czas:           1h 23mn

opis:


Małżeństwo Sjergieja (Sergey Svetlakov) i Mariny (Vera Brezhneva) przechodzi kryzys.
Para dochodzi do wniosku, że egzotyczna podróż byłaby wspaniałym urozmaiceniem i być
może poprawiła ich wzajemne relacje. Wyprawa mija parze na bezustannych kłótniach,
a ich rezultatem jest to, że trafiają na wyspę, gdzieś na oceanie. Nawet wówczas kontynuują
swoje waśnie, które przypominają już regularną wojnę. Tymczasem okazuje się, że na wyspie
mieszka dzikie, wojownicze plemię.


obsada:

Vera Brezhneva, Sergey Svetlakov, Aleksandr Polovtsev

dane techniczne:

Jungle 3D (2012)-alE13.mkv
Format                      : Matroska
Format version              : Version 4 / Version 2
File size                   : 7.69 GiB
Duration                    : 1h 23mn
Overall bit rate            : 13.2 Mbps
Movie name                  : Jungle 3D (2012)-alE13
Encoded date                : UTC 2016-04-26 13:33:06
Writing application         : mkvmerge v8.1.0 ('Psychedelic Postcard') 64bit
Writing library             : libebml v1.3.1 + libmatroska v1.4.2

Video
ID                          : 1
Format                      : AVC
Format/Info                 : Advanced Video Codec
Format profile              : High@L4.1
Format settings, CABAC      : Yes
Format settings, ReFrames   : 2 frames
Format settings, GOP        : M=3, N=24
Codec ID                    : V_MPEG4/ISO/AVC
Duration                    : 1h 23mn
Bit rate                    : 12.5 Mbps
Width                       : 1 920 pixels
Height                      : 1 080 pixels
Display aspect ratio        : 16:9
Frame rate mode             : Constant
Frame rate                  : 23.976 (24000/1001) fps
Color space                 : YUV
Chroma subsampling          : 4:2:0
Bit depth                   : 8 bits
Scan type                   : Progressive
Bits/(Pixel*Frame)          : 0.252
Stream size                 : 7.31 GiB (95%)
Title                       : Jungle 3D (2012)-alE13
Writing library             : x264 core 142
Default                     : Yes
Forced                      : No
Color range                 : Limited
Color primaries             : BT.709
Transfer characteristics    : BT.709
Matrix coefficients         : BT.709

Audio
ID                          : 2
Format                      : AC-3
Format/Info                 : Audio Coding 3
Mode extension              : CM (complete main)
Format settings, Endianness : Big
Codec ID                    : A_AC3
Duration                    : 1h 23mn
Bit rate mode               : Constant
Bit rate                    : 640 Kbps
Channel(s)                  : 6 channels
Channel positions           : Front: L C R, Side: L R, LFE
Sampling rate               : 48.0 KHz
Frame rate                  : 31.250 fps (1536 spf)
Compression mode            : Lossy
Stream size                 : 382 MiB (5%)
Title                       : Jungle 3D (2012)-alE13
Language                    : Russian
Default                     : No
Forced                      : No

Text #1
ID                          : 3
Format                      : VobSub
Muxing mode                 : zlib
Codec ID                    : S_VOBSUB
Codec ID/Info               : Picture based subtitle format used on DVDs
Duration                    : 1h 18mn
Bit rate                    : 6 984 bps
Count of elements           : 777
Stream size                 : 3.91 MiB (0%)
Title                       : Jungle 3D (2012)-alE13
Language                    : Polish
Default                     : Yes
Forced                      : No

Text #2
ID                          : 4
Format                      : VobSub
Muxing mode                 : zlib
Codec ID                    : S_VOBSUB
Codec ID/Info               : Picture based subtitle format used on DVDs
Duration                    : 1h 18mn
Bit rate                    : 6 984 bps
Count of elements           : 777
Stream size                 : 3.91 MiB (0%)
Title                       : Jungle 3D (2012)-alE13
Language                    : English
Default                     : No
Forced                      : No

Menu
00:00:00.000                : en:Chapter 01
00:04:00.782                : en:Chapter 02
00:07:56.309                : en:Chapter 03
00:14:02.049                : en:Chapter 04
00:17:18.328                : en:Chapter 05
00:21:46.972                : en:Chapter 06
00:27:42.452                : en:Chapter 07
00:34:58.805                : en:Chapter 08
00:40:15.621                : en:Chapter 09
00:46:24.281                : en:Chapter 10
00:51:48.063                : en:Chapter 11
00:56:29.094                : en:Chapter 12
01:00:58.029                : en:Chapter 13
01:07:08.107                : en:Chapter 14
01:13:54.138                : en:Chapter 15
01:18:50.225                : en:Chapter 16

Dostępne napisy
Brak napisów
Szczegóły torrenta
Tracker http://tracker.aletorrenty.pl:2710/announce
Multitracker [ Pokaż ]
Kategoria: » » » [Zgłoś błąd]
Dodane 03-10-2017
Podziękowali:
0 użytkowników 
Podziękuj!
Pokaż / Ukryj pliki:
Nazwa pliku Rozmiar
info/Nostalgie.jpg 138.36 KB
info/Torrent downloaded from alE13 torrents at BTScene.org.txt 0.12 KB
info/Torrent downloaded from demonoid.pw.txt 0.04 KB
info/Torrent downloaded from - www.aletorrenty.pl 0.04 KB
subtitles/Jungle 3D (2012)-alE13-eng.sub 8.47 MB
subtitles/Jungle 3D (2012)-alE13.sub 8.41 MB
subtitles/Jungle 3D (2012)-alE13-eng.xml 115.27 KB
subtitles/Jungle 3D (2012)-alE13.xml 105.41 KB
subtitles/Jungle 3D (2012)-alE13-eng.srt 56.22 KB
subtitles/Jungle 3D (2012)-alE13.srt 52.97 KB
subtitles/Jungle 3D (2012)-alE13-eng.idx 35.19 KB
subtitles/Jungle 3D (2012)-alE13.idx 32.24 KB
Jungle 3D (2012)-alE13.mkv 7.69 GB
sample.mkv 70.18 MB
poster.jpg 126.87 KB
TXT.jpg 121.65 KB
16 plików
Brak komentarzy...